Login or Register

NFO File

For The.Hook.1963

The.Hook.1963.DVDrip.AVC

Drama, War | 9 June 1963 (UK)
http://www.imdb.com/title/tt0057152/

In the final days of the Korean War, an enemy airman is captured by 
three American soldiers who cannot bring themselves to follow the 
order to execute their prisoner.

Director: George Seaton
Writers: Vahé Katcha (novel), Henry Denker
Stars: Kirk Douglas, Robert Walker Jr., Nick Adams 

anamorphic playback 848x358 (AR 2.35)
Format                                   : Matroska
Format version                           : Version 4 / Version 2
File size                                : 1.41 GiB
Duration                                 : 1h 37mn
Overall bit rate                         : 2 059 Kbps
Movie name                               : The Hook [1963] DVDRip - HJ
Encoded date                             : UTC 2016-02-13 10:46:43
Writing application                      : mkvmerge v8.8.0 ('Wind at my back') 64bit
Writing library                          : libebml v1.3.3 + libmatroska v1.4.4

Video
ID                                       : 1
Format                                   : AVC
Format/Info                              : Advanced Video Codec
Format profile                           : [email protected]
Format settings, CABAC                   : Yes
Format settings, ReFrames                : 14 frames
Codec ID                                 : V_MPEG4/ISO/AVC
Duration                                 : 1h 37mn
Bit rate                                 : 1 826 Kbps
Width                                    : 716 pixels
Height                                   : 358 pixels
Display aspect ratio                     : 2.35:1
Original display aspect ratio            : 2.40:1
Frame rate mode                          : Constant
Frame rate                               : 23.976 fps
Color space                              : YUV
Chroma subsampling                       : 4:2:0
Bit depth                                : 8 bits
Scan type                                : Progressive
Bits/(Pixel*Frame)                       : 0.297
Stream size                              : 1.25 GiB (89%)
Title                                    : English
Writing library                          : x264 core 142 r2479 dd79a61
Language                                 : English
Default                                  : Yes
Forced                                   : No
Color primaries                          : BT.601 NTSC
Transfer characteristics                 : BT.709
Matrix coefficients                      : BT.601

Audio
ID                                       : 2
Format                                   : AC-3
Format/Info                              : Audio Coding 3
Mode extension                           : CM (complete main)
Format settings, Endianness              : Big
Codec ID                                 : A_AC3
Duration                                 : 1h 37mn
Bit rate mode                            : Constant
Bit rate                                 : 192 Kbps
Channel(s)                               : 2 channels
Channel positions                        : Front: L R
Sampling rate                            : 48.0 KHz
Bit depth                                : 16 bits
Compression mode                         : Lossy
Stream size                              : 134 MiB (9%)
Title                                    : English
Language                                 : English
Default                                  : Yes
Forced                                   : No

Menu
00:00:00.000                             : en:Chapter 1
00:03:47.000                             : en:Chapter 2
00:07:58.500                             : en:Chapter 3
00:11:24.000                             : en:Chapter 4
00:16:37.000                             : en:Chapter 5
00:21:05.000                             : en:Chapter 6
00:24:11.500                             : en:Chapter 7
00:28:09.000                             : en:Chapter 8
00:33:29.000                             : en:Chapter 9
00:38:05.500                             : en:Chapter 10
00:42:18.500                             : en:Chapter 11
00:50:46.000                             : en:Chapter 12
00:55:21.500                             : en:Chapter 13
01:01:26.500                             : en:Chapter 14
01:08:46.000                             : en:Chapter 15
01:14:33.500                             : en:Chapter 16
01:22:05.000                             : en:Chapter 17
01:26:34.000                             : en:Chapter 18