Login or Register

NFO File

For The Brotherhood Of The Bell 1970 WebDL-RFM

The Brotherhood Of The Bell 1970 WebDL-RFM

1h 40min | Drama, Thriller 
http://www.imdb.com/title/tt0066864/
TV Movie 17 September 1970

A successful professor has his life disrupted by a secret from his past - 
in his college days he became a member of a powerful secret society, 
and now the society has a job for him.

Director: Paul Wendkos
Stars: Glenn Ford, Rosemary Forsyth, Dean Jagger

Format                                   : Matroska
Format version                           : Version 2
File size                                : 1.43 GiB
Duration                                 : 1h 37mn
Overall bit rate                         : 2 098 Kbps
Writing application                      : HandBrake 0.9.9
Writing library                          : libmkv 0.6.5

Video
ID                                       : 1
Format                                   : AVC
Format/Info                              : Advanced Video Codec
Format profile                           : [email protected]
Format settings, CABAC                   : Yes
Format settings, ReFrames                : 9 frames
Codec ID                                 : V_MPEG4/ISO/AVC
Duration                                 : 1h 37mn
Bit rate                                 : 1 900 Kbps
Width                                    : 712 pixels
Height                                   : 480 pixels
Display aspect ratio                     : 4:3
Original display aspect ratio            : 4:3
Frame rate mode                          : Constant
Frame rate                               : 29.970 fps
Color space                              : YUV
Chroma subsampling                       : 4:2:0
Bit depth                                : 8 bits
Scan type                                : Progressive
Bits/(Pixel*Frame)                       : 0.186
Stream size                              : 1.27 GiB (89%)
Writing library                          : x264 core 130 r2273 b3065e6
Language                                 : English
Default                                  : Yes
Forced                                   : No
Color primaries                          : BT.601 NTSC
Transfer characteristics                 : BT.709
Matrix coefficients                      : BT.601

Audio
ID                                       : 2
Format                                   : AC-3
Format/Info                              : Audio Coding 3
Mode extension                           : CM (complete main)
Format settings, Endianness              : Big
Codec ID                                 : A_AC3
Duration                                 : 1h 37mn
Bit rate mode                            : Constant
Bit rate                                 : 192 Kbps
Channel(s)                               : 2 channels
Channel positions                        : Front: L R
Sampling rate                            : 48.0 KHz
Bit depth                                : 16 bits
Compression mode                         : Lossy
Stream size                              : 134 MiB (9%)
Language                                 : English
Default                                  : Yes
Forced                                   : No

Menu
00:00:00.000                             : Chapter 1
00:03:42.722                             : Chapter 2
00:10:13.112                             : Chapter 3
00:15:48.948                             : Chapter 4
00:23:39.418                             : Chapter 5
00:29:08.747                             : Chapter 6
00:33:22.000                             : Chapter 7
00:40:34.899                             : Chapter 8
00:45:28.225                             : Chapter 9
00:50:40.537                             : Chapter 10
00:55:12.309                             : Chapter 11
01:01:22.178                             : Chapter 12
01:07:12.528                             : Chapter 13
01:13:39.415                             : Chapter 14
01:16:38.093                             : Chapter 15
01:20:13.809                             : Chapter 16
01:25:29.624                             : Chapter 17
01:29:01.336                             : Chapter 18
01:36:57.812                             : Chapter 19