Login or Register

NFO File

For The.Meg.2018.720p.HDCAM-1XBET

The.Meg.2018.720p.HDCAM-1XBET

Genre: Action | Horror | Sci-Fi | Thriller
IMDB: http://www.imdb.com/title/tt4779682/
Directed by:  Jon Turteltaub
Starring:  Jason Statham, Bingbing Li, Rainn Wilson
Language: English
Plot: Five years ago, expert sea diver and Naval Captain Jonas Taylor encountered an unknown danger in the unexplored recesses of the Mariana Trench that forced him to abort his mission and abandon half his crew. Though the tragic incident earned him a dishonorable discharge, what ultimately cost him his career, his marriage and any semblance of honor was his unsupported and incredulous claims of what caused it – an attack on his vessel by a mammoth, 70-foot sea creature, believed to be extinct for more than a million years. But when a submersible lies sunk and disabled at the bottom of the ocean – carrying his ex-wife among the team onboard – he is the one who gets the call. Whether a shot at redemption or a suicide mission, Jonas must confront his fears and risk his own life and the lives of everyone trapped below on a single question: Could the Carcharodon Megalodon – the largest marine predator that ever existed – still be alive … and on the hunt?

Release Name: The.Meg.2018.720p.HDCAM-1XBET
Size: 2.44 GiB
Video: MP4 | 1280×536 | 3 144 kb/s
Audio: English | AC-3 | 224 kb/s
Runtime: 1 h 43 min



MEDIAINFO:


    General
    Complete name                            : D:\The.M-e-g.2018.720p.HDCAM-1XBET.mp4
    Format                                   : MPEG-4
    Format profile                           : Base Media / Version 2
    Codec ID                                 : mp42 (mp42/isom/avc1)
    File size                                : 2.45 GiB
    Duration                                 : 1 h 43 min
    Overall bit rate mode                    : Variable
    Overall bit rate                         : 3 385 kb/s
    Encoded date                             : UTC 2018-08-10 11:55:01
    Tagged date                              : UTC 2018-08-10 11:55:01
    Writing application                      : TMPGEnc Video Mastering Works 6 Version. 6.2.2.29
     
    Video
    ID                                       : 2
    Format                                   : AVC
    Format/Info                              : Advanced Video Codec
    Format profile                           : [email protected]
    Format settings                          : CABAC / 6 Ref Frames
    Format settings, CABAC                   : Yes
    Format settings, RefFrames               : 6 frames
    Codec ID                                 : avc1
    Codec ID/Info                            : Advanced Video Coding
    Duration                                 : 1 h 43 min
    Bit rate mode                            : Variable
    Bit rate                                 : 3 144 kb/s
    Maximum bit rate                         : 18.0 Mb/s
    Width                                    : 1 280 pixels
    Height                                   : 536 pixels
    Display aspect ratio                     : 2.40:1
    Frame rate mode                          : Constant
    Frame rate                               : 29.970 (30000/1001) FPS
    Standard                                 : Component
    Color space                              : YUV
    Chroma subsampling                       : 4:2:0
    Bit depth                                : 8 bits
    Scan type                                : Progressive
    Bits/(Pixel*Frame)                       : 0.153
    Stream size                              : 2.29 GiB (93%)
    Writing library                          : x264 core 148
    Encoding settings                        : cabac=1 / ref=6 / deblock=1:0:0 / analyse=0x3:0x113 / me=hex / subme=7 / psy=1 / psy_rd=1.00:0.00 / mixed_ref=1 / me_range=16 / chroma_me=1 / trellis=1 / 8x8dct=1 / cqm=1 / deadzone=21,11 / fast_pskip=1 / chroma_qp_offset=-2 / threads=12 / lookahead_threads=2 / sliced_threads=0 / slices=1 / nr=0 / decimate=1 / interlaced=0 / minigop=0 / stitchable=1 / constrained_intra=0 / bframes=3 / b_pyramid=0 / b_adapt=1 / b_bias=0 / direct=1 / weightb=1 / open_gop=0 / weightp=2 / keyint=250 / keyint_min=25 / scenecut=40 / intra_refresh=0 / rc_lookahead=40 / rc=abr / mbtree=1 / bitrate=3144 / ratetol=1.0 / qcomp=0.60 / qpmin=3 / qpmax=69 / qpstep=4 / vbv_maxrate=18000 / vbv_bufsize=18000 / nal_hrd=vbr / filler=0 / ip_ratio=1.40 / aq=1:1.00
    Encoded date                             : UTC 2018-08-10 11:55:01
    Tagged date                              : UTC 2018-08-10 11:55:01
    Color range                              : Limited
    Color primaries                          : BT.709
    Transfer characteristics                 : BT.709
    Matrix coefficients                      : BT.709
     
    Audio
    ID                                       : 1
    Format                                   : AC-3
    Format/Info                              : Audio Coding 3
    Codec ID                                 : ac-3
    Duration                                 : 1 h 43 min
    Bit rate mode                            : Constant
    Bit rate                                 : 224 kb/s
    Channel(s)                               : 2 channels
    Channel positions                        : Front: L R
    Sampling rate                            : 48.0 kHz
    Frame rate                               : 31.250 FPS (1536 SPF)
    Bit depth                                : 16 bits
    Compression mode                         : Lossy
    Stream size                              : 166 MiB (7%)
    Service kind                             : Complete Main
    Default                                  : Yes
    Alternate group                          : 1
    Encoded date                             : UTC 2018-08-10 11:55:01
    Tagged date                              : UTC 2018-08-10 11:55:01