Login or Register

NFO File

For Solo.A.Star.Wars.Story.2018.1080p.10bit.BluRay.8CH.x265.HEVC-PSA

Solo.A.Star.Wars.Story.2018.1080p.10bit.BluRay.8CH.x265.HEVC-PSA

http://www.imdb.com/title/tt3778644/

During an adventure into the criminal underworld, Han Solo meets his future co-pilot Chewbacca and encounters 
Lando Calrissian years before joining the Rebellion.

Brought to you by NZBforYOU.com

Sick of takedowns?
So are we!

Come check us out at:
http://www.nzbforyou.com/nzbforyou.php


Format                                   : Matroska
Format version                           : Version 4 / Version 2
File size                                : 2.24 GiB
Duration                                 : 2 h 14 min
Overall bit rate                         : 2 375 kb/s
Movie name                               : PSArips.com | Solo.A.Star.Wars.Story.2018.1080p.10bit.BluRay.8CH.x265.HEVC-PSA
Encoded date                             : UTC 2018-09-15 18:24:33
Writing application                      : mkvmerge v26.0.0 ('In The Game') 64-bit
Writing library                          : libebml v1.3.6 + libmatroska v1.4.9

Video
ID                                       : 1
Format                                   : HEVC
Format/Info                              : High Efficiency Video Coding
Format profile                           : Main [email protected]@Main
Codec ID                                 : V_MPEGH/ISO/HEVC
Duration                                 : 2 h 14 min
Bit rate                                 : 2 066 kb/s
Width                                    : 1 920 pixels
Height                                   : 808 pixels
Display aspect ratio                     : 2.40:1
Frame rate mode                          : Constant
Frame rate                               : 23.976 (24000/1001) FPS
Color space                              : YUV
Chroma subsampling                       : 4:2:0
Bit depth                                : 10 bits
Bits/(Pixel*Frame)                       : 0.056
Stream size                              : 1.95 GiB (87%)
Default                                  : Yes
Forced                                   : No

Audio
ID                                       : 2
Format                                   : AAC
Format/Info                              : Advanced Audio Codec
Format profile                           : HE-AAC / LC
Format settings                          : Explicit
Codec ID                                 : A_AAC-2
Duration                                 : 2 h 14 min
Bit rate                                 : 307 kb/s
Channel(s)                               : 7 channels
Channel(s)_Original                      : 8 channels
Channel positions                        : Front: L C R, Side: L R, Back: L R, LFE
Sampling rate                            : 48.0 kHz / 24.0 kHz
Frame rate                               : 23.438 FPS (1024 SPF)
Compression mode                         : Lossy
Delay relative to video                  : 31 ms
Stream size                              : 296 MiB (13%)
Default                                  : Yes
Forced                                   : No

Text
ID                                       : 3
Format                                   : UTF-8
Codec ID                                 : S_TEXT/UTF8
Codec ID/Info                            : UTF-8 Plain Text
Duration                                 : 2 h 5 min
Bit rate                                 : 56 b/s
Count of elements                        : 1958
Stream size                              : 51.9 KiB (0%)
Language                                 : English
Default                                  : Yes
Forced                                   : No

à*>?Iö;C7?Bö>7Iö8;;Dö9>;9A;:öJJFIMMM7L7IJ9EC7DJ?L?HKI