Login or Register

NFO File

For Upgrade.2018.1080p.BrRip.6CH.x265.HEVC-PSA

Upgrade.2018.1080p.BrRip.6CH.x265.HEVC-PSA


http://www.imdb.com/title/tt6499752/

Set in the near-future, technology controls nearly all aspects of life. But when Grey, a self-identified technophobe, has his world turned upside down, his only hope for revenge is an experimental computer chip implant called Stem. 

Brought to you by NZBforYOU.com
http://www.nzbforyou.com/nzbforyou.php


Format                                   : Matroska
Format version                           : Version 4 / Version 2
File size                                : 1.34 GiB
Duration                                 : 1 h 39 min
Overall bit rate                         : 1 927 kb/s
Movie name                               : PSArips.com | Upgrade.2018.1080p.BrRip.6CH.x265.HEVC-PSA
Encoded date                             : UTC 2018-08-16 14:23:26
Writing application                      : mkvmerge v25.0.0 ('Prog Noir') 64-bit
Writing library                          : libebml v1.3.6 + libmatroska v1.4.9

Video
ID                                       : 1
Format                                   : HEVC
Format/Info                              : High Efficiency Video Coding
Format profile                           : [email protected]@Main
Codec ID                                 : V_MPEGH/ISO/HEVC
Duration                                 : 1 h 39 min
Bit rate                                 : 1 712 kb/s
Width                                    : 1 920 pixels
Height                                   : 808 pixels
Display aspect ratio                     : 2.40:1
Frame rate mode                          : Constant
Frame rate                               : 23.976 (24000/1001) FPS
Color space                              : YUV
Chroma subsampling                       : 4:2:0
Bit depth                                : 8 bits
Bits/(Pixel*Frame)                       : 0.046
Stream size                              : 1.19 GiB (89%)
Default                                  : Yes
Forced                                   : No

Audio
ID                                       : 2
Format                                   : AAC
Format/Info                              : Advanced Audio Codec
Format profile                           : HE-AAC / LC
Format settings                          : Explicit
Codec ID                                 : A_AAC-2
Duration                                 : 1 h 39 min
Bit rate                                 : 213 kb/s
Channel(s)                               : 6 channels
Channel positions                        : Front: L C R, Side: L R, LFE
Sampling rate                            : 48.0 kHz / 24.0 kHz
Frame rate                               : 23.438 FPS (1024 SPF)
Compression mode                         : Lossy
Delay relative to video                  : 23 ms
Stream size                              : 152 MiB (11%)
Language                                 : English
Default                                  : Yes
Forced                                   : No

Text #1
ID                                       : 3
Format                                   : UTF-8
Codec ID                                 : S_TEXT/UTF8
Codec ID/Info                            : UTF-8 Plain Text
Duration                                 : 1 h 32 min
Bit rate                                 : 51 b/s
Count of elements                        : 1067
Stream size                              : 34.9 KiB (0%)
Title                                    : ENG
Language                                 : English
Default                                  : Yes
Forced                                   : No

Text #2
ID                                       : 4
Format                                   : UTF-8
Codec ID                                 : S_TEXT/UTF8
Codec ID/Info                            : UTF-8 Plain Text
Duration                                 : 1 h 33 min
Bit rate                                 : 58 b/s
Count of elements                        : 1324
Stream size                              : 40.3 KiB (0%)
Title                                    : ENG SDH
Language                                 : English
Default                                  : No
Forced                                   : No

Menu
00:00:00.000                             : :00:00:00.000
00:05:38.400                             : :00:05:38.296
00:09:05.000                             : :00:09:04.919
00:15:27.000                             : :00:15:26.759
00:18:42.800                             : :00:18:42.705
00:21:43.800                             : :00:21:43.636
00:28:37.400                             : :00:28:37.382
00:34:42.800                             : :00:34:42.622
00:41:17.200                             : :00:41:17.058
00:47:55.800                             : :00:47:55.623
00:51:14.600                             : :00:51:14.530
00:56:58.600                             : :00:56:58.457
01:01:34.600                             : :01:01:34.566
01:05:22.200                             : :01:05:22.168
01:09:11.000                             : :01:09:10.938
01:16:13.400                             : :01:16:13.194
01:20:17.200                             : :01:20:17.104
01:25:42.000                             : :01:25:41.928
01:31:45.400                             : :01:31:45.250
01:33:57.800                             : :01:33:57.632

à*>?Iö;C7?Bö>7Iö8;;Dö9>;9A;:öJJFIMMM7L7IJ9EC7DJ?L?HKI