Login or Register

NFO File

For Solo.A.Star.Wars.Story.2018.1080p.BRRip.x264

Solo.A.Star.Wars.Story.2018.1080p.BRRip.x264.MKVCage.nfo

http://www.imdb.com/title/tt3778644/

During an adventure into the criminal underworld, Han Solo meets his future co-pilot Chewbacca and encounters Lando Calrissian years before joining the Rebellion.

Brought to you by NZBforYOU.com

Sick of takedowns?
So are we!

Come check us out at:
http://www.nzbforyou.com/nzbforyou.php


Format                                   : Matroska
Format version                           : Version 4 / Version 2
File size                                : 2.63 GiB
Duration                                 : 2 h 14 min
Overall bit rate                         : 2 793 kb/s
Movie name                               : Solo.A.Star.Wars.Story.2018.1080p.BRRip.x264.MKVCage
Encoded date                             : UTC 2018-09-11 06:23:15
Writing application                      : mkvmerge v25.0.0 ('Prog Noir') 64-bit
Writing library                          : libebml v1.3.6 + libmatroska v1.4.9

Video
ID                                       : 2
Format                                   : AVC
Format/Info                              : Advanced Video Codec
Format profile                           : [email protected]
Format settings                          : CABAC / 5 Ref Frames
Format settings, CABAC                   : Yes
Format settings, RefFrames               : 5 frames
Codec ID                                 : V_MPEG4/ISO/AVC
Duration                                 : 2 h 14 min
Bit rate                                 : 2 600 kb/s
Width                                    : 1 910 pixels
Height                                   : 804 pixels
Display aspect ratio                     : 2.40:1
Frame rate mode                          : Constant
Frame rate                               : 23.976 (24000/1001) FPS
Color space                              : YUV
Chroma subsampling                       : 4:2:0
Bit depth                                : 8 bits
Scan type                                : Progressive
Bits/(Pixel*Frame)                       : 0.071
Stream size                              : 2.45 GiB (93%)
Writing library                          : x264 core 155 r2901 7d0ff22
Encoding settings                        : cabac=1 / ref=5 / deblock=1:-1:-1 / analyse=0x3:0x133 / me=umh / subme=9 / psy=1 / psy_rd=1.00:0.15 / mixed_ref=1 / me_range=16 / chroma_me=1 / trellis=2 / 8x8dct=1 / cqm=0 / deadzone=21,11 / fast_pskip=1 / chroma_qp_offset=-3 / threads=25 / lookahead_threads=2 / sliced_threads=0 / nr=0 / decimate=1 / interlaced=0 / bluray_compat=0 / constrained_intra=0 / bframes=3 / b_pyramid=2 / b_adapt=2 / b_bias=0 / direct=3 / weightb=1 / open_gop=0 / weightp=2 / keyint=240 / keyint_min=24 / scenecut=40 / intra_refresh=0 / rc_lookahead=60 / rc=2pass / mbtree=1 / bitrate=2600 / ratetol=1.0 / qcomp=0.60 / qpmin=0 / qpmax=69 / qpstep=4 / cplxblur=20.0 / qblur=0.5 / vbv_maxrate=62500 / vbv_bufsize=78125 / nal_hrd=none / filler=0 / ip_ratio=1.40 / aq=1:1.00
Default                                  : Yes
Forced                                   : No
Color range                              : Limited
Color primaries                          : BT.709
Transfer characteristics                 : BT.709
Matrix coefficients                      : BT.709

Audio
ID                                       : 1
Format                                   : AAC
Format/Info                              : Advanced Audio Codec
Format profile                           : HE-AAC / LC
Format settings                          : Explicit
Codec ID                                 : A_AAC-2
Duration                                 : 2 h 14 min
Bit rate                                 : 192 kb/s
Channel(s)                               : 6 channels
Channel positions                        : Front: L C R, Side: L R, LFE
Sampling rate                            : 48.0 kHz / 24.0 kHz
Frame rate                               : 23.438 FPS (1024 SPF)
Compression mode                         : Lossy
Delay relative to video                  : 31 ms
Stream size                              : 185 MiB (7%)
Language                                 : English
Default                                  : Yes
Forced                                   : No

Text #1
ID                                       : 3
Format                                   : UTF-8
Codec ID                                 : S_TEXT/UTF8
Codec ID/Info                            : UTF-8 Plain Text
Duration                                 : 2 h 5 min
Bit rate                                 : 56 b/s
Count of elements                        : 1957
Stream size                              : 51.9 KiB (0%)
Language                                 : English
Default                                  : Yes
Forced                                   : No

Text #2
ID                                       : 4
Format                                   : UTF-8
Codec ID                                 : S_TEXT/UTF8
Codec ID/Info                            : UTF-8 Plain Text
Duration                                 : 2 h 5 min
Bit rate                                 : 63 b/s
Count of elements                        : 2232
Stream size                              : 58.5 KiB (0%)
Title                                    : SDH
Language                                 : English
Default                                  : No
Forced                                   : No

Menu
00:00:00.000                             : :Opening Credits
00:00:53.845                             : :Streets of Corellia
00:02:10.213                             : :Qi'ra
00:03:53.150                             : :Den of The White Worms
00:06:00.485                             : :Corellian Speeder Chase
00:09:27.567                             : :Coronet Spaceport
00:13:16.045                             : :Recruitment
00:14:14.020                             : :Mimban Battlefield
00:16:12.305                             : :None-of-Your-Business Company
00:19:45.267                             : :The Beast
00:22:43.904                             : :Mimban Escape
00:24:37.351                             : :Vandor
00:27:00.202                             : :Camfire Stories
00:30:02.926                             : :Conveyex Heist
00:32:54.848                             : :Marauder Attack
00:39:09.764                             : :"You're in This Life For Good"
00:41:59.225                             : :The Yacht
00:43:20.181                             : :Dryden Vos
00:44:32.211                             : :Reunion
00:48:03.756                             : :Deal with Crimson Dawn
00:51:58.490                             : :The Lodge
00:53:17.528                             : :Full Sabacc
00:57:23.649                             : :Lando and L3
01:00:16.780                             : :Millennium Falcon
01:02:40.882                             : :"Buckle Up, Baby"
01:04:51.262                             : :"People Are Predictable"
01:05:29.509                             : :Han and Qi'ra
01:07:12.028                             : :"Trust No One"
01:08:05.915                             : :Not Cpmpatible
01:10:00.113                             : :Arrival on Kessel
01:12:44.193                             : :Into the Mines
01:14:40.893                             : :Revolt
01:18:30.873                             : :Kessel Shootout
01:23:15.782                             : :Into the Maelstrom
01:26:32.646                             : :Kessel Run
01:30:33.261                             : :Escaping the Maw
01:35:19.672                             : :Savareen
01:37:04.861                             : :The Good Guy
01:38:52.802                             : :Marauders Return
01:41:18.531                             : :Enfys Nest
01:43:02.677                             : :One Last Score
01:45:27.947                             : :The Delivery
01:46:32.219                             : :Explosive Stuff
01:49:45.996                             : :Double-Crossings
01:53:33.890                             : :Duel with Dryden
01:57:14.027                             : :Secret Leader
01:58:55.128                             : :Showdown
02:01:34.829                             : :Rebellion's Dawn
02:03:20.935                             : :Sabacc Rematch
02:06:09.604                             : :End Credits
02:14:30.062                             : :HDChina

à*>?Iö;C7?Bö>7Iö8;;Dö9>;9A;:öJJFIMMM7L7IJ9EC7DJ?L?HKI