Login or Register

NFO File

For M1n10ns.2015.m720p

M1n10ns.2015.m720p

Minions.2015.720p.BluRay.H264.AAC-RARBG

http://www.imdb.com/title/tt2293640/

Format                                   : MPEG-4
Format profile                           : Base Media
Codec ID                                 : isom
File size                                : 1.10 GiB
Duration                                 : 1h 30mn
Overall bit rate                         : 1 729 Kbps
Movie name                               : Minions.2015.720p.BluRay.H264.AAC-RARBG
Writing application                      : Lavf56.40.101
Comment                                  : Minions.2015.720p.BluRay.H264.AAC-RARBG

Video
ID                                       : 1
Format                                   : AVC
Format/Info                              : Advanced Video Codec
Format profile                           : [email protected]
Format settings, CABAC                   : Yes
Format settings, ReFrames                : 4 frames
Codec ID                                 : avc1
Codec ID/Info                            : Advanced Video Coding
Duration                                 : 1h 30mn
Bit rate                                 : 1 500 Kbps
Width                                    : 1 280 pixels
Height                                   : 688 pixels
Display aspect ratio                     : 1.85:1
Frame rate mode                          : Constant
Frame rate                               : 23.976 fps
Color space                              : YUV
Chroma subsampling                       : 4:2:0
Bit depth                                : 8 bits
Scan type                                : Progressive
Bits/(Pixel*Frame)                       : 0.071
Stream size                              : 976 MiB (87%)
Writing library                          : x264 core 148 r2597M e86f3a1

Audio
ID                                       : 2
Format                                   : AAC
Format/Info                              : Advanced Audio Codec
Format profile                           : LC
Codec ID                                 : 40
Duration                                 : 1h 30mn
Duration_LastFrame                       : 32ms
Bit rate mode                            : Constant
Bit rate                                 : 224 Kbps
Channel(s)                               : 6 channels
Channel positions                        : Front: L C R, Side: L R, LFE
Sampling rate                            : 48.0 KHz
Compression mode                         : Lossy
Delay relative to video                  : 83ms
Stream size                              : 146 MiB (13%)
Language                                 : English

Text
ID                                       : 3
Format                                   : Apple text
Codec ID                                 : text
Duration                                 : 1h 30mn
Bit rate mode                            : Constant
Bit rate                                 : 1 bps
Delay relative to video                  : 83ms
Stream size                              : 520 Bytes (0%)
Language                                 : English

Menu
00:00:00.043                             : 00:00:00.000
00:05:39.882                             : 00:05:39.839
00:11:28.981                             : 00:11:28.938
00:16:55.182                             : 00:16:55.139
00:22:28.473                             : 00:22:28.430
00:26:59.077                             : 00:26:59.034
00:32:54.682                             : 00:32:54.639
00:37:28.915                             : 00:37:28.872
00:40:58.874                             : 00:40:58.831
00:45:29.353                             : 00:45:29.310
00:49:24.129                             : 00:49:24.086
00:53:43.096                             : 00:53:43.053
00:57:04.964                             : 00:57:04.921
01:01:36.986                             : 01:01:36.943
01:05:54.744                             : 01:05:54.701
01:07:55.281                             : 01:07:55.238
01:11:19.193                             : 01:11:19.150
01:15:32.696                             : 01:15:32.653
01:21:12.869                             : 01:21:12.826
01:28:24.801                             : 01:28:24.758