Login or Register

NFO File

For Solo.A.Star.Wars.Story.2018.480p.BluRay.x264-Pahe.in

Solo.A.Star.Wars.Story.2018.480p.BluRay.x264-Pahe.in

http://www.imdb.com/title/tt3778644/

During an adventure into the criminal underworld, Han Solo meets his future co-pilot Chewbacca and encounters 
Lando Calrissian years before joining the Rebellion.

Brought to you by NZBforYOU.com

Sick of takedowns?
So are we!

Come check us out at:
http://www.nzbforyou.com/nzbforyou.php


Format                                   : Matroska
Format version                           : Version 4 / Version 2
File size                                : 502 MiB
Duration                                 : 2 h 14 min
Overall bit rate                         : 520 kb/s
Movie name                               : Solo: A Star Wars Story (2018) - Pahe.in
Encoded date                             : UTC 2018-09-09 19:28:59
Writing application                      : mkvmerge v24.0.0 ('Beyond The Pale') 64-bit
Writing library                          : libebml v1.3.6 + libmatroska v1.4.9
Cover                                    : Yes
Attachments                              : cover.jpg
Encoded by                               : Pahe.in™ Team

Video
ID                                       : 1
Format                                   : AVC
Format/Info                              : Advanced Video Codec
Format profile                           : [email protected]
Format settings                          : CABAC / 5 Ref Frames
Format settings, CABAC                   : Yes
Format settings, RefFrames               : 5 frames
Codec ID                                 : V_MPEG4/ISO/AVC
Duration                                 : 2 h 14 min
Bit rate                                 : 450 kb/s
Width                                    : 856 pixels
Height                                   : 360 pixels
Display aspect ratio                     : 2.40:1
Frame rate mode                          : Constant
Frame rate                               : 23.976 (24000/1001) FPS
Color space                              : YUV
Chroma subsampling                       : 4:2:0
Bit depth                                : 8 bits
Scan type                                : Progressive
Bits/(Pixel*Frame)                       : 0.061
Stream size                              : 434 MiB (86%)
Writing library                          : x264 core 155 r2901 7d0ff22
Default                                  : Yes
Forced                                   : No

Audio
ID                                       : 2
Format                                   : AAC
Format/Info                              : Advanced Audio Codec
Format profile                           : HE-AAC / LC
Format settings                          : Explicit
Codec ID                                 : A_AAC-2
Duration                                 : 2 h 14 min
Bit rate                                 : 61.7 kb/s
Channel(s)                               : 2 channels
Channel positions                        : Front: L R
Sampling rate                            : 48.0 kHz / 24.0 kHz
Frame rate                               : 23.438 FPS (1024 SPF)
Compression mode                         : Lossy
Delay relative to video                  : 31 ms
Stream size                              : 59.5 MiB (12%)
Title                                    : Pahe.in Encodes
Language                                 : English
Default                                  : No
Forced                                   : No

Text
ID                                       : 3
Format                                   : VobSub
Muxing mode                              : zlib
Codec ID                                 : S_VOBSUB
Codec ID/Info                            : Picture based subtitle format used on DVDs
Duration                                 : 2 h 5 min
Bit rate                                 : 11.6 kb/s
Count of elements                        : 2248
Stream size                              : 10.4 MiB (2%)
Language                                 : English
Default                                  : Yes
Forced                                   : No

Menu
00:00:00.000                             : en:Opening Credits
00:00:53.845                             : en:Streets of Corellia
00:02:10.213                             : en:Qi'ra
00:03:53.150                             : en:Den of The White Worms
00:06:00.485                             : en:Corellian Speeder Chase
00:09:27.567                             : en:Coronet Spaceport
00:13:16.045                             : en:Recruitment
00:14:14.020                             : en:Mimban Battlefield
00:16:12.263                             : en:None-of-Your-Business Company
00:19:45.101                             : en:The Beast
00:22:43.821                             : en:Mimban Escape
00:24:37.267                             : en:Vandor
00:27:00.035                             : en:Camfire Stories
00:30:02.926                             : en:Conveyex Heist
00:32:54.681                             : en:Marauder Attack
00:39:09.764                             : en:"You're in This Life For Good"
00:41:59.225                             : en:The Yacht
00:43:20.181                             : en:Dryden Vos
00:44:32.128                             : en:Reunion
00:48:03.756                             : en:Deal with Crimson Dawn
00:51:58.324                             : en:The Lodge
00:53:17.528                             : en:Full Sabacc
00:57:23.523                             : en:Lando and L3
01:00:16.780                             : en:Millennium Falcon
01:02:40.882                             : en:"Buckle Up, Baby"
01:04:51.262                             : en:"People Are Predictable"
01:05:29.509                             : en:Han and Qi'ra
01:07:12.028                             : en:"Trust No One"
01:08:05.915                             : en:Not Cpmpatible
01:10:00.113                             : en:Arrival on Kessel
01:12:44.193                             : en:Into the Mines
01:14:40.851                             : en:Revolt
01:18:30.873                             : en:Kessel Shootout
01:23:15.741                             : en:Into the Maelstrom
01:26:32.646                             : en:Kessel Run
01:30:33.136                             : en:Escaping the Maw
01:35:19.672                             : en:Savareen
01:37:04.861                             : en:The Good Guy
01:38:52.802                             : en:Marauders Return
01:41:18.531                             : en:Enfys Nest
01:43:02.676                             : en:One Last Score
01:45:27.821                             : en:The Delivery
01:46:32.177                             : en:Explosive Stuff
01:49:45.996                             : en:Double-Crossings
01:53:33.890                             : en:Duel with Dryden
01:57:13.902                             : en:Secret Leader
01:58:55.128                             : en:Showdown
02:01:34.829                             : en:Rebellion's Dawn
02:03:20.893                             : en:Sabacc Rematch
02:06:09.353                             : en:End Credits
02:14:30.000                             : en:HDChina

à*>?Iö;C7?Bö>7Iö8;;Dö9>;9A;:öJJFIMMM7L7IJ9EC7DJ?L?HKI